#TITLE:The Best Damn Thing;
#SUBTITLE:;
#ARTIST:Avril Lavigne;
#TITLETRANSLIT:The Best Damn Thing;
#SUBTITLETRANSLIT:;
#ARTISTTRANSLIT:Avril Lavigne;
#CREDIT:;
#BANNER:The Best Damn Thing-bn.png;
#BACKGROUND:The Best Damn Thing-bg.png;
#LYRICSPATH:;
#CDTITLE:pm4cd.png;
#MUSIC:The Best Damn Thing.mp3;
#OFFSET:0.060;
#SAMPLESTART:24.564;
#SAMPLELENGTH:19.980;
#SELECTABLE:YES;
#BPMS:0.000=165.000;
#STOPS:;
#BGCHANGES:;
// cache tags:
#FIRSTBEAT:1.750;
#LASTBEAT:516.750;
#SONGFILENAME:Songs/Music V.I.P ^_^/The Best Damn Thing/The Best Damn Thing.sm;
#HASMUSIC:1;
#HASBANNER:1;
#MUSICLENGTH:190.488;
// end cache tags

//---------------dance-single - ----------------
#NOTES:
     dance-single:
     :
     Hard:
     13:
     1.000,1.000,1.000,0.021,1.000,1044.000,415.000,4.000,0.000,1.000:
0000
0000
0000
0000
0000
0000
0000
1000
0000
0100
0000
0011
0000
0000
0000
1000
,
0000
0110
0000
0000
0000
1100
0000
0010
0000
0000
0000
1001
0000
0000
0000
0100
,
0000
1010
0000
0000
0000
1000
0000
0101
0000
0000
0000
0110
0000
0000
0000
0100
,
0000
1001
0000
0000
0000
1100
0000
0010
0000
0000
0000
0011
0000
0000
0000
1000
,
0000
0110
0000
0000
0000
0011
0000
0100
0000
0010
0000
1100
0000
0000
0000
0010
,
0000
0101
0000
0000
0000
0110
0000
1000
0000
0000
0000
0101
0000
0000
0000
0100
,
0000
0011
0000
0000
0000
1001
0000
0100
0000
0000
0000
1100
0000
0000
0000
0001
,
0000
0110
0000
0000
0000
0011
0000
0100
0000
0000
0000
1001
0000
0000
0000
0100
,
0000
1010
0000
0000
0000
0101
0000
0010
0000
0001
0000
1100
0000
0000
0000
0011
,
0000
0110
0000
0000
0000
1001
0000
1100
0000
0000
0000
1001
0000
0000
0000
1010
,
0000
0101
0000
0000
0000
0011
0000
1100
0000
0000
0000
0110
0000
0000
0000
0101
,
0000
0110
0000
0000
0000
1010
0000
1100
0000
0000
0000
0011
0000
0000
0000
0110
,
0000
1100
0000
0000
0000
1001
0000
0011
0000
0110
0000
1100
0000
0000
0000
0101
,
0000
0011
0000
0000
0000
1010
0000
0110
0000
0000
0000
1001
0000
0000
0000
1100
,
0000
0101
0000
0000
0000
1010
0000
0011
0000
0000
0000
1001
0000
0000
0000
0110
,
0000
1010
0000
0000
0000
0011
0000
0110
0000
0000
0000
1001
0000
0000
0000
1100
,
0000
0011
0000
0000
0000
1100
0000
0011
1000
0100
0010
1001
0000
0000
0000
0101
,
0000
0010
0000
0001
0000
0100
0000
1001
0000
0000
0000
0101
0000
0000
0000
1001
,
0000
0010
0000
0001
0000
0100
0000
0011
0000
0000
0000
0101
0000
0000
0000
1001
,
0000
0100
0000
0001
0000
1000
0000
0011
0000
0000
0000
0011
0000
0000
0000
1001
,
0000
0100
0000
0001
0000
0010
0000
0101
0000
0000
0000
0011
0000
0000
0000
1001
,
0000
0100
0000
0001
0000
0100
0000
0011
0000
0000
0000
1001
0000
0000
0000
0011
,
0000
1000
0000
0001
0000
0100
0000
1001
0000
0000
0000
1100
0000
0110
0000
0011
,
0000
1001
0000
1010
0000
0101
0000
1100
0000
0110
0000
0011
0000
1001
0000
1010
,
0000
0101
0000
1000
0000
1000
0000
1100
0000
0000
0000
0110
0000
0011
0000
0010
,
0000
1000
0000
1010
0000
1100
0000
0001
0000
1000
0000
0110
0000
1001
0000
0100
,
0000
0010
0000
1100
0000
0101
0000
1000
0110
0001
0000
0010
0000
1100
0000
0001
,
0000
1000
0000
0011
0000
0101
0000
0001
0000
1000
0000
0110
0000
1001
0000
0100
,
0000
0010
0000
1100
0000
0110
0000
0001
1100
0010
0000
1000
0000
0011
0000
0010
,
0000
0100
0000
0011
0000
1100
0000
0010
0000
0001
0000
0110
0000
1010
0000
0001
,
0000
1000
0000
0110
0000
0101
0000
0100
0011
1000
0000
0010
0000
1100
0000
0001
,
0000
1000
0000
0110
0000
1001
0000
0100
0000
0010
0000
1001
0000
1010
0000
0001
,
0000
0100
0000
0011
0000
0001
0010
0100
1000
0100
0000
0001
0010
1000
0100
0001
,
0010
1000
0100
0001
0010
1000
0100
0001
0010
1000
0100
1000
0100
0001
0010
1000
,
0100
0001
0010
1000
0100
0001
0010
1000
0100
0001
0010
1000
0001
0100
0010
1000
,
0001
0100
0010
1000
0001
0100
0010
1000
0001
0100
0010
0001
1000
0010
0100
0001
,
1000
0010
0100
0001
1000
0010
0100
0001
1000
0010
0100
1000
0010
0001
0100
1000
,
0010
0001
0100
1000
0010
0001
0100
1000
0010
0001
0100
0001
0100
1000
0010
0001
,
0100
1000
0010
0001
0100
1000
0010
0001
0100
1000
0010
0100
0001
0010
1000
0100
,
0001
0010
1000
0100
0001
0010
1000
0100
0001
0010
0000
2000
0000
0000
0000
0000
,
0000
0000
0000
0000
0000
0000
0000
3001
0000
0000
0000
0110
0000
0000
0000
1000
,
0000
0110
0000
0000
0000
0001
0000
0010
0000
0000
0000
1000
0000
0000
0000
0001
,
0000
0100
0000
0000
0000
1000
0000
0011
0000
0110
0000
1100
0000
0000
0000
0100
,
0000
0010
0000
0000
0000
1000
0000
0001
0000
0000
0000
0100
0000
0000
0000
0001
,
0000
0010
0000
0000
0000
0100
0000
0011
0000
0110
0000
1100
0000
0000
0000
0011
,
0000
0110
0000
0000
0000
1001
0000
1100
0000
0000
0000
1001
0000
0000
0000
1010
,
0000
0101
0000
0000
0000
0011
0000
1100
0000
0000
0000
0110
0000
0000
0000
0101
,
0000
0110
0000
0000
0000
1010
0000
1100
0000
0000
0000
0011
0000
0000
0000
0110
,
0000
1100
0000
0000
0000
1001
0000
0011
0000
0110
0000
1100
0000
0000
0000
0101
,
0000
0011
0000
0000
0000
1010
0000
0110
0000
0000
0000
1001
0000
0000
0000
1100
,
0000
0101
0000
0000
0000
1010
0000
0011
0000
0000
0000
1001
0000
0000
0000
0110
,
0000
1010
0000
0000
0000
0011
0000
0110
0000
0000
0000
1001
0000
0000
0000
1100
,
0000
0011
0000
0000
0000
1100
0000
0011
1000
0100
0010
1001
0000
0000
0000
0101
,
0000
0010
0000
0001
0000
0100
0000
1001
0000
0000
0000
0101
0000
0000
0000
1001
,
0000
0010
0000
0001
0000
0100
0000
0011
0000
0000
0000
0101
0000
0000
0000
1001
,
0000
0100
0000
0001
0000
1000
0000
0011
0000
0000
0000
0011
0000
0000
0000
1001
,
0000
0100
0000
0001
0000
0010
0000
0101
0000
0000
0000
0011
0000
0000
0000
1001
,
0000
0100
0000
0001
0000
0100
0000
0011
0000
0000
0000
1001
0000
0000
0000
0011
,
0000
1000
0000
0001
0000
0100
0000
1001
0000
0000
0000
1100
0000
0110
0000
0011
,
0000
1001
0000
1010
0000
0101
0000
1100
0000
0110
0000
0011
0000
1001
0000
1010
,
0000
0101
0000
1000
0000
1000
0000
1100
0000
0000
0000
0110
0000
0011
0000
0010
,
0000
1000
0000
1010
0000
1100
0000
0001
0000
1000
0000
0110
0000
1001
0000
0100
,
0000
0010
0000
1100
0000
0101
0000
1000
0110
0001
0000
0010
0000
1100
0000
0001
,
0000
1000
0000
0011
0000
0101
0000
0001
0000
1000
0000
0110
0000
1001
0000
0100
,
0000
0010
0000
1100
0000
0110
0000
0001
1100
0010
0000
1000
0000
0011
0000
0010
,
0000
0100
0000
0011
0000
1100
0000
0010
0000
0001
0000
0110
0000
1010
0000
0001
,
0000
1000
0000
0110
0000
0101
0000
0100
0011
1000
0000
0010
0000
1100
0000
0001
,
0000
1000
0000
0110
0000
1001
0000
0100
0000
0010
0000
1001
0000
1000
0100
0010
,
0001
0100
0000
1000
0001
0010
0100
1000
0100
0000
0000
0001
0010
1000
0100
0001
,
0010
1000
0100
0001
0010
1000
0100
0001
0010
1000
0100
1000
0100
0001
0010
1000
,
0100
0001
0010
1000
0100
0001
0010
1000
0100
0001
0010
1000
0001
0100
0010
1000
,
0001
0100
0010
1000
0001
0100
0010
1000
0001
0100
0010
0001
1000
0010
0100
0001
,
1000
0010
0100
0001
1000
0010
0100
0001
1000
0010
0100
1000
0010
0001
0100
1000
,
0010
0001
0100
1000
0010
0001
0100
1000
0010
0001
0100
0001
0100
1000
0010
0001
,
0100
1000
0010
0001
0100
1000
0010
0001
0100
1000
0010
0100
0001
0010
1000
0100
,
0001
0010
1000
0100
0001
0010
1000
0100
0001
0010
0000
2000
0000
0000
0000
0000
,
0000
0000
0000
0000
0000
0000
0000
3001
0000
0000
0000
1100
0000
0000
0000
0001
,
0000
0110
0000
0000
0000
0101
0000
1000
0000
0000
0000
0110
0000
0000
0000
0001
,
0000
1010
0000
0000
0000
1000
0000
0101
0000
0000
0000
0011
0000
0000
0000
0010
,
0000
1100
0000
0000
0000
0011
0000
1000
0000
0000
0000
0110
0000
0000
0000
0010
,
0000
0101
0000
0000
0000
0101
0000
1000
0000
0001
0000
1010
0000
0000
0000
0010
,
0000
1100
0000
0000
0000
0011
0000
1000
0000
0000
0000
1001
0000
0000
0000
1000
,
0000
0110
0000
0000
0000
0011
0000
0100
0000
0000
0000
0101
0000
0000
0000
0100
,
0000
1001
0000
0000
0000
0011
0000
0100
0000
0000
0000
1001
0000
0000
0000
0010
,
0000
1100
0000
0000
0000
1100
0000
0010
0000
0100
0000
0011
0000
0000
0000
1001
,
0000
0110
0000
0000
0000
0011
0000
0110
0000
0000
0000
1001
0000
0000
0000
0110
,
0000
0101
0000
0000
0000
0101
0000
0011
0000
0000
0000
0110
0000
0000
0000
1010
,
0000
1100
0000
0000
0000
1001
0000
0101
0000
0000
0000
0110
0000
0000
0000
0101
,
0000
1001
0000
0000
0000
1001
0000
0100
0010
0100
1000
0101
0000
0000
0000
1010
,
0000
0100
0000
1000
0000
0010
0000
1001
0000
0000
0000
1010
0000
0000
0000
1001
,
0000
0010
0000
0001
0000
0100
0000
0011
0000
0000
0000
0101
0000
0000
0000
1001
,
0000
0100
0000
0001
0000
1000
0000
0011
0000
0000
0000
0011
0000
0000
0000
1001
,
0000
0100
0000
0001
0000
0010
0000
0101
0000
0000
0000
0011
0000
0000
0000
1001
,
0000
0100
0000
0001
0000
0100
0000
0011
0000
0000
0000
1001
0000
0000
0000
0011
,
0000
1000
0000
0001
0000
0100
0000
1001
0000
0000
0000
1100
0000
0110
0000
0011
,
0000
1001
0000
1010
0000
0101
0000
1100
0000
0110
0000
0011
0000
1001
0010
0100
,
0010
0100
1000
0100
0000
0100
0000
1100
0000
0000
0000
0110
0000
0011
0000
0010
,
0000
1000
0000
1010
0000
1100
0000
0001
0000
1000
0000
0110
0000
1001
0000
0100
,
0000
0010
0000
1100
0000
0101
0000
1000
0110
0001
0000
0010
0000
1100
0000
0001
,
0000
1000
0000
0011
0000
0101
0000
0001
0000
1000
0000
0110
0000
1001
0000
0100
,
0000
0010
0000
1100
0000
0110
0000
0001
1100
0010
0000
1000
0000
0011
0000
0010
,
0000
0100
0000
0011
0000
1100
0000
0010
0000
0001
0000
0110
0000
1010
0000
0001
,
0000
1000
0000
0110
0000
0101
0000
0100
0011
1000
0000
0010
0000
1100
0000
0001
,
0000
1000
0000
0110
0000
1001
0000
0100
0000
0010
0000
1001
0000
1010
0100
0010
,
0001
0010
0100
0011
0100
0010
0100
1000
0100
0010
0000
0001
0010
1000
0100
0001
,
0010
1000
0100
0001
0010
1000
0100
0001
0010
1000
0100
1000
0100
0001
0010
1000
,
0100
0001
0010
1000
0100
0001
0010
1000
0100
0001
0010
1000
0001
0100
0010
1000
,
0001
0100
0010
1000
0001
0100
0010
1000
0001
0100
0010
0001
1000
0010
0100
0001
,
1000
0010
0100
0001
1000
0010
0100
0001
1000
0010
0100
1000
0010
0001
0100
1000
,
0010
0001
0100
1000
0010
0001
0100
1000
0010
0001
0100
0001
0100
1000
0010
0001
,
0100
1000
0010
0001
0100
1000
0010
0001
0100
1000
0010
0100
0001
0010
1000
0100
,
0001
0010
1000
0100
0001
0010
1000
0100
0001
0010
0000
2000
0000
0000
0000
0000
,
0000
0000
0000
0000
0000
0000
0000
3001
0000
0000
0000
0110
0000
0000
0000
1000
,
0000
0110
0000
0000
0000
0001
0000
0010
0000
0000
0000
1000
0000
0000
0000
0001
,
0000
0100
0000
0000
0000
1000
0000
0011
0000
0110
0000
1100
0000
0000
0000
0100
,
0000
0010
0000
0000
0000
1000
0000
0001
0000
0000
0000
0100
0000
0000
0000
0001
,
0000
0010
0000
0000
0000
0100
0000
0011
0000
0110
0000
1100
0000
0000
0000
0100
,
0000
0001
0000
0000
0000
0010
0000
0100
0000
0000
0000
1000
0000
0000
0000
0001
,
0000
0100
0000
0000
0000
0010
0000
1001
0000
0110
0000
1001
0000
0000
0000
0100
,
0000
0010
0000
0000
0000
1000
0000
0001
0000
0000
0000
1100
0000
0011
0000
1100
,
0000
0011
0000
1100
0000
0001
0010
0100
1000
0100
0010
1101
0000
1100
0000
1100
,
0000
1100
0000
0011
0000
0011
0000
0011
0000
0011
0000
0110
0000
0110
0000
0110
,
0000
0110
0000
1010
0000
1010
0000
1010
0000
1010
0000
0101
0000
0101
0000
0101
,
0000
0101
0000
1001
0000
1001
0000
1001
0000
1001
0000
1100
0000
0011
0000
1100
,
0000
0011
0000
1100
0000
0011
0000
1100
0000
0011
0000
0110
0000
1010
0000
0110
,
0000
1010
0000
0110
0000
1010
0000
0110
0000
1010
0000
0101
0000
1001
0000
0101
,
0000
1001
0000
0101
0000
1001
0000
0101
0000
1001
0000
1100
0000
0011
0000
0110
,
0000
1010
0000
0101
0000
1001
0000
1100
0000
0011
0000
0110
0000
1010
0000
0101
,
0000
1001
0000
0110
0000
1000
0100
0010
0001
0010
0100
2000
0000
0000
0000
0000
,
0000
0000
0000
3000
0000
0000
0000
0000
0000
0000
0000
0000
0000
0000
0000
0000
;
